#TITLE:Hot Line;
#SUBTITLE:SDO China lv13 - [N]hok[Q] Simfile;
#ARTIST:Ciara;
#TITLETRANSLIT:;
#SUBTITLETRANSLIT:;
#ARTISTTRANSLIT:;
#CREDIT:[N]hok[Q] ;
#BANNER:bn-hotline.png;
#BACKGROUND:bg-hotline.png;
#LYRICSPATH:;
#CDTITLE:cd-hotline.png;
#MUSIC:Hot Line.mp3;
#OFFSET:-0.020;
#SAMPLESTART:41.822;
#SAMPLELENGTH:15.246;
#SELECTABLE:YES;
#DISPLAYBPM:122.000;
#BPMS:0.000=122.008,22.000=122.003,23.000=122.008,24.000=122.003,25.000=122.008,27.000=122.003,28.000=122.008,29.000=122.003,30.000=122.008,31.000=122.003,32.000=122.008,33.000=122.003,35.000=122.008,36.000=122.003,37.000=122.008,38.000=122.003,39.000=122.008,40.000=122.003,41.000=122.008,43.000=122.003,44.000=121.998,45.000=122.003,46.000=121.998,47.000=122.003,48.000=121.998,49.000=122.003,50.000=121.998,51.000=122.003,52.000=121.998,53.000=122.003,54.000=121.998,55.000=122.003,56.000=121.998,57.000=122.003,58.000=121.998,59.000=122.003,60.000=121.998,61.000=122.003,62.000=121.998,63.000=122.003,64.000=121.998,65.000=122.003,66.000=121.998,67.000=122.003,68.000=121.998,69.000=122.003,70.000=121.998,71.000=122.003,72.000=121.998,73.000=122.003,74.000=121.998,75.000=122.003,76.000=121.998,77.000=122.003,78.000=121.998,79.000=122.003,80.000=121.998,81.000=122.003,82.000=121.998,83.000=122.003,84.000=121.998,85.000=122.003,86.000=121.998,87.000=122.003,88.000=121.998,89.000=122.003,90.000=121.998,91.000=122.003,92.000=121.998,93.000=122.003,94.000=121.998,95.000=122.003,96.000=121.998,97.000=122.003,98.000=121.998,99.000=122.003,100.000=121.998,101.000=122.003,102.000=121.998,103.000=122.003,104.000=121.998,105.000=122.003,106.000=121.998,107.000=122.003,108.000=121.998,109.000=122.003,110.000=121.998,111.000=122.003,112.000=121.998,113.000=122.003,114.000=121.998,115.000=122.003,116.000=121.998,117.000=122.003,118.000=121.998,119.000=122.003,120.000=121.998,121.000=122.003,122.000=121.998,123.000=122.003,124.000=121.998,125.000=122.003,126.000=121.998,127.000=122.003,128.000=121.998,129.000=122.003,130.000=121.998,131.000=122.003,132.000=121.998,133.000=122.003,134.000=121.998,135.000=122.003,136.000=121.998,137.000=122.003,138.000=121.998,139.000=122.003,140.000=121.998,141.000=122.003,142.000=121.998,143.000=122.003,144.000=121.998,145.000=122.003,146.000=121.998,147.000=122.003,148.000=121.998,149.000=122.003,150.000=121.998,151.000=122.003,152.000=121.998,153.000=122.003,154.000=121.998,155.000=122.003,156.000=121.998,157.000=122.003,158.000=121.998,159.000=122.003,160.000=121.998,161.000=122.003,162.000=121.998,163.000=122.003,164.000=121.998,165.000=122.003,166.000=121.998,167.000=122.003,168.000=121.998,169.000=122.003,170.000=121.998,171.000=122.003,172.000=121.998,173.000=122.003,174.000=121.998,175.000=122.003,176.000=121.998,178.000=122.003,179.000=121.998,180.000=122.003,181.000=121.998,182.000=122.003,183.000=121.998,184.000=122.003,185.000=121.998,186.000=122.003,187.000=121.998,188.000=122.003,189.000=121.998,190.000=122.003,191.000=121.998,192.000=122.003,193.000=121.998,194.000=122.003,195.000=121.998,196.000=122.003,197.000=121.998,198.000=122.003;
#STOPS:;
#BGCHANGES:;
// cache tags:
#FIRSTBEAT:4.000;
#LASTBEAT:199.000;
#SONGFILENAME:Songs/SDO pack 5/Hot Line/Hot Line.sm;
#HASMUSIC:1;
#HASBANNER:1;
#MUSICLENGTH:98.304;
// end cache tags

//---------------dance-single - ----------------
#NOTES:
     dance-single:
     :
     Hard:
     13:
     0.958,0.860,1.000,0.366,0.076,395.000,219.000,36.000,0.000,14.000:
0000
0000
0000
0000
,
0001
0100
0010
1000
0010
0100
0010
0001
,
1000
0010
0100
1000
0010
0001
0100
0010
,
1000
0000
0000
0000
0000
0000
0000
0000
0000
0000
0000
0000
1000
0000
0000
0000
0000
0000
0000
0000
0000
0000
0000
0000
0001
0000
0000
0000
0000
0000
0000
0000
0000
0000
0000
0000
0001
0000
0000
0000
0000
0000
0000
0000
0000
0000
0000
0000
0200
0000
0000
0000
0000
0000
0000
0000
0000
0000
0000
0000
0010
0000
0000
0000
0000
0000
0000
0000
0300
0000
0000
0000
0020
0000
0000
0000
0000
0000
0000
0000
0000
0000
0000
0000
0100
0000
0000
0000
0000
0000
0000
0000
0000
0030
0000
0000
,
2000
0000
0000
0000
0001
0000
0000
3000
0002
0000
0000
0000
1000
0000
0000
0003
0200
0000
0000
0000
0010
0000
0010
0300
1020
0000
0000
0000
0000
0000
0000
0030
,
0101
0001
1010
0110
1000
0001
1010
0010
,
1100
0000
0110
0000
1001
0000
0010
0000
0101
0100
0100
0000
0011
0000
1000
0000
,
0110
0001
1010
0110
0001
1000
0101
0010
,
1000
1100
1010
0001
0110
1010
0101
0011
,
1110
0100
1010
0111
0010
0010
1011
1000
,
0101
0000
0110
0000
0101
0000
0010
0000
1010
0010
0010
0000
1100
0000
0001
0000
,
0110
0100
1010
0110
0010
1000
0101
0000
,
0010
1100
0011
0100
1010
1010
0101
0101
,
1100
0000
0010
0100
0011
0000
0001
0000
1100
0000
0100
0000
0010
0000
0011
0000
,
0110
0110
1010
1010
0101
0101
1100
1100
,
0011
0000
0011
0100
1010
0000
1001
0000
0110
0000
0010
0000
0101
0000
0011
0000
,
1100
0000
1100
0000
0011
0000
0011
1000
0110
0000
1001
0000
0101
0000
1010
0000
,
1100
0000
0001
0010
0101
0000
1000
0000
0110
0000
0001
0000
0100
0000
1010
0000
,
0101
0011
1100
0110
1001
1000
0101
0011
,
1100
0000
0110
0100
0011
0000
1100
0000
0011
0000
1000
0000
0110
0000
0101
0000
,
1010
0000
0011
0000
0101
0000
1100
0000
1001
0010
1100
0000
0011
0000
0110
0000
,
0101
0000
0000
0000
0001
0000
0000
0000
2010
0000
0000
0000
0010
0000
0000
3000
0102
0000
0000
0000
0100
0000
0000
0003
0200
0000
0000
0000
0001
0000
0000
0300
,
1010
0000
0000
0000
1000
0000
0000
0000
0120
0000
0000
0000
0100
0000
0000
0030
2001
0000
0000
0000
0001
0000
0000
3000
0102
0000
0000
0000
0010
0000
0000
0003
,
1000
0000
0000
0000
0011
0000
0000
0000
0210
0000
0000
0000
0010
0000
0000
0300
0021
0000
0000
0000
0001
0000
0000
0030
2100
0000
0000
0000
0110
0000
0000
3000
,
0101
0110
0011
1100
0110
0011
0110
1100
,
0011
0000
0000
0000
0100
0000
0000
0000
1002
0000
0000
0000
0010
0000
0000
0003
0210
0000
0000
0000
1000
0000
0000
0300
0020
0000
0000
0000
0101
0000
0000
0030
,
1001
0000
0000
0000
0100
0000
0000
0000
2010
0000
0000
0000
0010
0000
0000
3000
0102
0000
0000
0000
0010
0000
0000
0003
0200
0000
0000
0000
1000
0000
0000
0300
,
0010
0000
0000
0000
1100
0000
0000
0000
0021
0000
0000
0000
0100
0000
0000
0030
2001
0000
0000
0000
0100
0000
0000
3000
0002
0000
0000
0000
0010
0000
0000
0003
,
1100
0011
0110
1010
0101
0110
1100
0011
,
1100
0000
0000
0000
0001
0000
0001
0000
0210
0000
0000
0000
1010
0000
0000
0300
0000
0000
0000
0000
0000
0000
0000
0000
0011
0000
0000
0000
0100
0000
0000
0000
,
0011
0000
0000
0000
0110
0000
0000
0000
1002
0000
0000
0000
0000
0000
0000
0003
1100
0000
0000
0000
0000
0000
0000
0000
0110
0000
0000
0000
0100
0000
0000
0000
,
0011
0000
0000
0000
1000
0000
0000
0000
2010
0000
0000
0000
0110
0000
0000
3000
0001
0000
0000
0000
0001
0000
0000
0000
1100
0000
0000
0000
0100
0000
0000
0000
,
0100
0000
0000
0000
0011
0000
0000
0000
1020
0000
0000
0000
0000
0000
0000
0030
0101
0000
0000
0000
0011
0000
0000
0000
1010
0000
0000
0000
0110
0000
0000
0000
,
1110
0000
0000
0000
0010
0000
0010
0000
1200
0000
0000
0000
1011
0000
0000
0300
0000
0000
0000
0000
0000
0000
0000
0000
0111
0000
0000
0000
0010
0000
0000
0000
,
1100
0000
0000
0000
0110
0000
0000
0000
1002
0000
0000
0000
0000
0000
0000
0003
0110
0000
0000
0000
0000
0000
0000
0000
1010
0000
0000
0000
0100
0000
0000
0000
,
0011
0000
0000
0000
0010
0000
0000
0000
2100
0000
0000
0000
0110
0000
0000
3000
0010
0000
0000
0000
0010
0000
0000
0000
0101
0000
0000
0000
0100
0000
0000
0000
,
0010
0000
0000
0000
1010
0000
0000
0000
0120
0000
0000
0000
0001
0000
0000
0030
1100
0000
0000
0000
1100
0000
0000
0000
0011
0000
0000
0000
0110
0000
0000
0000
,
1110
0010
0010
0111
0100
0100
1110
0010
,
0101
0001
0001
1100
0110
0010
1000
0100
,
1010
1000
1000
0011
0110
0100
0001
0010
,
1100
0001
1000
0011
1100
0001
0100
0010
,
1001
0000
0000
0000
0001
0000
0000
0000
1010
0000
0000
0000
0110
0000
0000
0000
0002
0000
0000
0000
0100
0000
0000
0003
1010
0000
0000
0000
1000
0000
0000
0000
,
0011
0011
1100
0010
0101
0100
1010
0010
,
1100
0000
0001
0001
0110
0000
1100
0000
0001
0000
0100
0000
0011
0000
0010
0000
,
0100
0000
1100
0000
0110
0000
1000
1000
0011
0000
1100
0000
0110
0000
0011
0000
,
1010
0000
0000
0000
0010
0000
0000
0000
0101
0000
0000
0000
0011
0000
0000
0000
2000
0000
0000
0000
0001
0000
0000
3000
0110
0000
0000
0000
0001
0000
0000
0000
,
1010
0110
0101
1000
0011
0100
1001
0010
,
1100
0000
0100
0100
1010
0000
1001
0000
0010
0000
0100
0000
0101
0000
0010
0000
,
0100
0011
1100
0010
1100
1100
0011
0011
,
0120
0000
0000
0000
0100
0000
0000
0000
0100
0000
0000
0000
0100
0000
0000
0030
0100
0000
0200
0000
0010
0000
0000
0000
0310
0000
0000
0000
0000
0000
0000
0000
;

//---------------dance-solo - ----------------
#NOTES:
     dance-solo:
     :
     Hard:
     13:
     0.958,0.860,1.000,0.366,0.076,395.000,219.000,36.000,0.000,15.000:
000000
000000
000000
000000
,
000010
001000
000100
100000
000001
010000
000100
000010
,
010000
000100
100000
010000
000100
000010
001000
000100
,
010000
000000
000000
000000
010000
000000
000000
000000
000001
000000
000000
000000
000001
000000
000000
000000
002000
000000
000000
000000
100000
000000
000000
003000
000200
000000
000000
000000
001000
000000
000000
000300
,
020000
000000
000000
000000
000010
000000
000000
030000
000020
000000
000000
000000
010000
000000
000000
000030
002000
000000
000000
000000
000001
000000
000001
003000
010200
000000
000000
000000
000000
000000
000000
000300
,
001010
000010
010100
101000
010000
000010
010100
000100
,
010001
000000
001100
000000
010010
000000
000100
000000
001010
001000
001000
000000
100100
000000
010000
000000
,
001001
000010
010100
001001
000010
010000
001010
000100
,
010000
101000
010100
000010
100100
010100
001010
000101
,
010101
001000
010100
101010
000100
000100
010101
010000
,
001010
000000
010100
000000
001010
000000
000100
000000
010100
000100
000100
000000
101000
000000
000010
000000
,
001001
001000
010100
001001
000100
010000
001010
000000
,
000100
101000
000101
001000
010100
010100
001010
001010
,
010001
000000
000100
001000
000110
000000
000010
000000
010100
000000
001000
000000
000100
000000
100010
000000
,
010100
001100
010010
010100
001001
100010
010100
011000
,
000101
000000
000110
001000
010100
000000
010010
000000
101000
000000
000100
000000
001010
000000
000101
000000
,
101000
000000
011000
000000
000101
000000
000110
010000
001001
000000
010010
000000
001010
000000
010100
000000
,
101000
000000
000010
000100
001001
000000
010000
000000
100100
000000
000010
000000
001000
000000
010100
000000
,
001010
000101
010010
001100
010010
010000
001010
100100
,
010001
000000
010100
001000
000101
000000
011000
000000
000110
000000
010000
000000
101000
000000
001010
000000
,
010100
000000
000101
000000
001010
000000
010100
000000
010010
000100
101000
000000
000101
000000
001010
000000
,
001010
000000
000000
000000
000010
000000
000000
000000
020100
000000
000000
000000
000100
000000
000000
030000
001020
000000
000000
000000
001000
000000
000000
000030
002000
000000
000000
000000
100010
000000
000000
003000
,
010100
000000
000000
000000
010000
000000
000000
000000
001200
000000
000000
000000
001000
000000
000000
000300
020010
000000
000000
000000
000010
000000
000000
030000
000020
000000
000000
000000
000100
000000
000000
000030
,
010000
000000
000000
000000
100100
000000
000000
000000
002100
000000
000000
000000
000100
000000
000000
003000
000210
000000
000000
000000
000010
000000
000000
000300
021000
000000
000000
000000
000101
000000
000000
030000
,
001010
100100
000101
011000
001100
000110
001100
011000
,
100010
000000
000000
000000
001000
000000
000000
000000
010020
000000
000000
000000
000100
000000
000000
000030
002100
000000
000000
000000
010000
000000
000000
003000
000200
000000
000000
000000
001010
000000
000000
000300
,
010010
000000
000000
000000
001000
000000
000000
000000
020001
000000
000000
000000
000100
000000
000000
030000
001020
000000
000000
000000
100000
000000
000000
000030
002000
000000
000000
000000
010000
000000
000000
003000
,
000100
000000
000000
000000
010001
000000
000000
000000
000210
000000
000000
000000
001000
000000
000000
000300
020010
000000
000000
000000
001000
000000
000000
030000
000020
000000
000000
000000
000100
000000
000000
000030
,
101000
000101
001100
010100
001010
001100
011000
000110
,
101000
000000
000000
000000
000010
000000
000010
000000
002100
000000
000000
000000
010001
000000
000000
003000
000000
000000
000000
000000
000000
000000
000000
000000
100010
000000
000000
000000
001000
000000
000000
000000
,
010100
000000
000000
000000
001001
000000
000000
000000
010020
000000
000000
000000
000000
000000
000000
000030
100100
000000
000000
000000
000000
000000
000000
000000
010100
000000
000000
000000
001000
000000
000000
000000
,
000101
000000
000000
000000
010000
000000
000000
000000
020100
000000
000000
000000
001001
000000
000000
030000
000010
000000
000000
000000
000100
000000
000000
000000
010001
000000
000000
000000
001000
000000
000000
000000
,
001000
000000
000000
100010
000000
000000
010200
000000
000000
000000
000000
000300
001010
000000
000000
000101
000000
000000
010100
000000
000000
101000
000000
000000
,
010101
000000
000000
000000
000100
000000
000100
000000
012000
000000
000000
000000
100110
000000
000000
003000
000000
000000
000000
000000
000000
000000
000000
000000
101010
000000
000000
000000
000100
000000
000000
000000
,
010001
000000
000000
000000
001100
000000
000000
000000
010020
000000
000000
000000
000000
000000
000000
000030
101000
000000
000000
000000
000000
000000
000000
000000
010100
000000
000000
000000
001000
000000
000000
000000
,
000101
000000
000000
000000
000100
000000
000000
000000
021000
000000
000000
000000
000101
000000
000000
030000
000100
000000
000000
000000
000100
000000
000000
000000
001010
000000
000000
000000
001000
000000
000000
000000
,
100000
000000
000000
000000
010100
000000
000000
000000
001200
000000
000000
000000
000010
000000
000000
000300
010001
000000
000000
000000
010001
000000
000000
000000
100010
000000
000000
000000
001100
000000
000000
000000
,
010101
000100
000100
101010
001000
001000
010101
000100
,
001010
000010
000010
010010
001100
000100
010000
001000
,
100100
010000
010000
000101
001100
001000
000010
000100
,
101000
000010
010000
000101
011000
000010
001000
000100
,
010010
000000
000000
000000
000010
000000
000000
000000
010100
000000
000000
000000
001001
000000
000000
000000
000020
000000
000000
000000
001000
000000
000000
000030
010100
000000
000000
000000
010000
000000
000000
000000
,
100010
000110
011000
000100
001010
001000
010001
000100
,
010001
000000
000010
000010
100100
000000
011000
000000
000010
000000
001000
000000
000101
000000
000100
000000
,
001000
000000
010010
000000
001100
000000
010000
010000
100010
000000
010100
000000
001001
000000
000110
000000
,
010100
000000
000000
000000
000100
000000
000000
000000
001010
000000
000000
000000
100100
000000
000000
000000
020000
000000
000000
000000
000010
000000
000000
030000
001001
000000
000000
000000
000010
000000
000000
000000
,
010100
001001
100010
010000
000101
001000
010010
000100
,
010010
000000
001000
001000
100100
000000
010010
000000
000100
000000
001000
000000
001010
000000
000100
000000
,
001000
000101
010010
000100
101000
011000
000101
000110
,
001200
000000
000000
000000
100000
000000
000000
000000
010000
000000
000000
000000
001000
000000
000000
000300
000001
000000
002000
000000
000010
000000
000000
000000
003100
000000
000000
000000
000000
000000
000000
000000
;
